Inicio   -   Ayuda   -   Contacto   -   Últimos Torrents

Torrents
Documentales842
Pel�culas11256
Pel�culas HD2068
Series1961
  Episodios22513
Series HD244
  Episodios2743
Juegos2689
  PC1736
Variados1521
  Deportes36
  Programas592
  Videoclips102
  Otros722
Música MP3 3525
Total Torrents57258

Informaci�n
Esta web no contiene ning�n tipo de fichero almacenado.

Todos los archivos se comparten mediante el BitTorrent, un programa P2P de intercambio entre usuarios.



Descarga la última versión de uTorrent y baja a la máxima velocidad:
Avril Lavigne - Hello Kitty
Total Descargas:  2.731 En Diciembre:  2.731

Fecha:  2016-05-31



Torrent:      Descargar         Tamaño:  67,49 MB
Descripción:

General
Format : MPEG-4
Format profile : Base Media
File size : 67.5 MiB
Duration : 3mn 18s
Overall bit rate mode : Variable
Overall bit rate : 2 855 Kbps

Video
Format : AVC
Format profile : High@L3.1
Format settings, CABAC : Yes
Format settings, ReFrames : 1 frame
Duration : 3mn 18s
Bit rate : 2 768 Kbps
Maximum bit rate : 4 438 Kbps
Width : 1 280 pixels
Height : 720 pixels
Display aspect ratio : 16:9
Frame rate : 30.000 fps
Stream size : 65.4 MiB (97%)
Title : Avril Lavigne - Hello Kitty (2014) 720p x264 AAC [GWC]

Audio
Format : AAC
Format profile : LC
Duration : 3mn 18s
Bit rate mode : Variable
Channel(s) : 2 channels
Stream size : 2.00 MiB (3%)
Language : English



Volver al índice de Variados







Datos legales


23:40:50
computer