coin-terminal.com
Inicio   -   Ayuda   -   Contacto   -   Últimos Torrents

Torrents
Documentales 842
Películas 11256
Películas HD 2068
Series 1961
   Episodios 22513
Series HD 244
   Episodios 2743
Juegos 2689
   PC 1736
Variados 1521
   Deportes 36
   Programas 592
   Videoclips 102
   Otros 722
Música MP3 3525
Total Torrents 57258

Información
Esta web no contiene ningún tipo de fichero almacenado.

Todos los archivos se comparten mediante el BitTorrent, un programa P2P de intercambio entre usuarios.



Descarga la última versión de uTorrent y baja a la máxima velocidad:
Taylor Swift - Wildest Dreams
[720p] Total Descargas:  2.804 En Diciembre:  2.137

Fecha:  2015-09-10



Torrent:      Descargar         Tamaño:  40,30 MB
Descripción:

General
Format : MPEG-4
File size : 40.3 MB
Duration : 3mn 54s
Overall bit rate mode : Variable
Overall bit rate : 1 441 Kbps

Video
Format : AVC
Format/Info : Advanced Video Codec
Format profile : High@L4
Format settings, ReFrames : 12 frames
Duration : 3mn 54s
Bit rate : 1 253 Kbps
Width : 1 280 pixels
Height : 540 pixels
Display aspect ratio : 2.40:1
Frame rate mode : Variable
Frame rate : 23.976 fps
Color space : YUV
Chroma subsampling : 4:2:0
Bit depth : 8 bits
Scan type : Progressive
Bits/(Pixel*Frame) : 0.076
Stream size : 35.1 MiB (87%)

Audio
Format : AAC
Bit rate : 179 Kbps
Channel(s) : 2 channels
Channel positions : Front: L R
Sampling rate : 48.0 KHz
Stream size : 5.01 MiB (12%)
Language : English

Subtitles
Type : Soft Subs
Language : English
(Note : Subtitles are not default. Please enable them.)



Volver al índice de Variados







Datos legales


04:17:37
computer